Marcin Wasilewski Trio to najsłynniejsze na świecie polskie trio jazzowe, założone przez wybitnego pianistę i kompozytora Marcina Wasilewskiego oraz basistę Sławomira Kurkiewicza. (Think Bobo Stenson, Stefano Battaglia, Giovanni Guidi, Leszek Możdżer.) See photos, profile pictures and albums from Marcin Wasilewski Trio. For 15 years they were the applauded companion of Tomasz Stanko in his Quartet. Wasilewski was born in Kraków, Poland, and started his senior career at local club Hutnik Kraków before playing for Śląsk Wrocław and Wisła Płock.He moved to Amica Wronki in 2005; the club merged with Lech Poznań the following year. Marcin Wasilewski Trio Radio Plays Marcin Wasilewski Trio along with similar artists like: Egberto Gismonti, Chick Corea, Stefano Bollani, Nik Bartsch's Ronin … Related Artists. Genres: ECM Style Jazz, Jazz, Latin Jazz. レフスキ・トリオ 2019. Download our mobile app now. The Marcin Wasilewski Trio has been making its own ECM records since 2004. He was acquired by Belgian side Anderlecht in January 2007. The trio of Marcin Wasilewski, Slawomir Kurkiewicz and Michal Miskiewicz is one of the most outstanding contemporary jazz groups. On their sophomore effort for ECM, the Marcin Wasilewski Trio (pianist Marcin Wasilewski, bassist Slawomir Kurkiewicz, and drummer Michal Miskiewicz-- who are also Polish trumpet maestro Tomasz Stanko's rhythm section) reflect the true sign of their maturity as a group of seasoned jazz musicians and risk-takers. Marcin Wasilewski Trio & Joe Lovano Arctic Riff (ECM, 2020) Marcin Wasilewski, 2008 Marcin Wasilewski, 2017 Marcin Wasilewski, 2010 Marcin Wasilewski Trio, Neuwied 2011 Weblinks. Marcin Wasilewski Trio łączy wielką jazzową tradycję i nowoczesność, w kluczowej dla współczesnego jazzu i także ogromnie wymagającej formule fortepianowego trio, a jednocześnie potrafi znaleźć w jej obrębie swój własny rozpoznawalny głos. There is space here for both the outgoing and the reflective, for profound composition and in-the-moment creativity. Career Early career. Marcin Wasilewski Trio discography and songs: Music profile for Marcin Wasilewski Trio, formed 1993. Three Reflections 4. Their friend and mentor trumpeter Tomasz Stańko has said, “In the entire history of Polish jazz we've never had a band … Spark of Life is the second album the trio have done in 2014 with a guest . Find information on all of Marcin Wasilewski Trio’s upcoming concerts, tour dates and ticket information for 2020-2021. Live by Marcin Wasilewski Trio, released 14 September 2018 1. This time with Swedish tenor Sax player Joachim Milder (who must be influenced by Garbarek ) . Marcin Wasilewski Trio Songs Videos Pictures Artist Radio . Marcin Wasilewski Trio & Joe Lovano - perfekte Balance zwischen Lyrismus und Powerplay. Marcin Wasilewski Trio. Spark of Life / Sudovian Dance 2. Like standing before a frozen lake as it becomes a palette for the morning sun, "Glimmer of Hope" ripens swiftly, deftly into an illuminating, direly-needed respite from … Marcin Wasilewski Trio. Austin (Live) Marcin Wasilewski Trio. PERFORMER "Marcin Wasilewski Trio" INDEX 01 00:00:00. about. Webpräsenz; Porträt bei All About Jazz (abgerufen am 28. Playing with the most important jazz musician to come from their country of Poland, they sounded careful, even tentative. 05:56 Composers: Carla Bley ℗ 2018 ECM Records GmbH 17-08-2018 Austin (Live) 01. Explore releases from Marcin Wasilewski Trio at Discogs. Message in a Bottle 3. Muzycy od wielu lat są ambasadorami polskiej kultury … The Marcin Wasilewski Trio, with bassist Slawomir Kurkiewicz and drummer Michal Miskiewicz, was introduced to the world in 2002, on Stanko’s ECM album Soul of Things. Koledzy dzielnie mu sekundują, naprawdę dając jazzu. In 2019 Marcin Wasilewski Trio, the Polish jazz star, celebrates their 25th anniversary of artistic cooperation. Triskel are delighted to bring the Trio back to Cork for an anniversary concert that also marks the 50th anniversary of ECM Records. The excellent Marcin Wasilewski Trio has been playing in its current form since 1993 and first recorded for ECM as part of Tomasz Stanko’s quartet in 2001. They were young and unknown then. Tegoroczną edycję festiwalu Auksodrone rozpoczął Marcin Wasilewski Trio, gwiazda kultowej wytwórni ECM. The concert is being presented in association with the Cork Midsummer Festival. Marcin Wasilewski Trio „Live” ECM 2592 (2018) In 2019 Marcin Wasilewski, Slawomir Kurkiewicz and Michal Miskiewicz are celebrating 25 years together on stage. 1.24.thu & 1.25.fri [1st.show] open 5:00pm / start 6:30pm [2nd.show] open 8:00pm / start 9:00pm MEMBER Marcin Wasilewski (p) Sławomir Kurkiewicz (duoble b) Michał Miśkiewicz (ds) Trio Marcin Wasilewski Jazz 2005; Listen on Apple Music. Listen to your favorite songs from Trio by Marcin Wasilewski Trio Now. Vashkar. Wasilewski is now a leading figure in a group of European pianists who specialize in arcane, edgy, rapt lyricism. Auf "Arctic Riff" gastiert nun US-Star Joe Lovano. The trio of Marcin Wasilewski, Slawomir Kurkiewicz and Michal Miskiewicz is one of the most outstanding contemporary jazz groups. Listen on Apple Music. Preview. They are no longer cautious. Night Train to You 5. Marcin Wasilewski(1975年~)は、ポーランドのピアニスト。 1990年代初期からSimple Acoustic Trioのグループ名で活動を開始。「Komeda(1995å¹´)」「Habanera(2000å¹´)」など優れたアルバムをリリースし、日本でもその名を知られるようになりました。 Actual Proof Published on Thu 14 Apr 2005 20.26 EDT. Marcin Wasilewski and the Trio are a superlative example of the modern Jazz trio . Marcin Wasilewski, Trio (ECM) John Fordham. Albums include January, Faithful, and Trio. Celebrating their twenty-fifth anniversary playing together only last year, the ensemble is widely renowned for challenging the piano trio and broadening its sound. [citation needed]Anderlecht. By MIKE JURKOVIC June 22, 2020 Sign in to view read count . Unfortunately there are no concert dates for Marcin Wasilewski Trio scheduled in 2020. Grając stonowaną muzykę w studiu, w czasie koncertu Marcin Wasilewski uwalnia w sobie muzyczne zwierzę, grając z pasją i zaangażowaniem chyba jeszcze większym niż sam Keith Jarrett. Their friend and mentor trumpeter Tomasz Stańko has said, “In the entire history of Polish jazz we've never had a band … Marcin Wasilewski Trio & Joe Lovano: Arctic Riff . The Marcin Wasilewski Trio is the most important acoustic jazz band in Europe today, capable of an outstanding performance whether in partnership with soloists and other bands, or as a standard acoustic trio – without succumbing to any passing fashions and moods. Austin 6. The first-time teaming of Poland’s dynamic Marcin Wasilewski Trio and big-toned US tenorist Joe Lovano brings forth special music of concentrated, deep feeling, in which lyricism and strength seem ideally balanced. Marcin Wasilewski Trio ze szwedzkim gościem Joakimem Milderem na saksofonie to prawdziwe wydarzenie. 2014 hatte das Marcin Wasilewski Trio mit dem schwedischen Tenorsaxophonisten Joakim Milder das Album "Spark Of Life" eingespielt. Stream ad-free with Amazon Music Unlimited on mobile, desktop, and tablet. Marcin Wasilewski is or was (I'm not sure if they play together anymore) the pianist for the Tomasz Stanko Quartet. Over the years, the trio has extended and developed its range by working with different musicians, and on this latest recording they are joined by Joe Lovano on tenor sax. Dazzling third ECM album by Poland’s Wasilewski Trio, which perfectly captures the group’s blend of energy and lyricism. Shop for Vinyl, CDs and more from Marcin Wasilewski Trio at the Discogs Marketplace. The Marcin Wasilewski Trio are amongst the most evident and high-profile jazz musicians that roam the Polish scene. This particular trio helped produce such masterpieces as "Soul Of Things" and "Suspended Night" with Stanko. Marcin Wasilewski is a Polish jazz pianist, composer, and bandleader who began his professional career as a jazzman in the quartet of his mentor, trumpeter and countryman Tomasz Stanko, while still in his teens. Milder ( who must be influenced by Garbarek ) was ( I 'm not sure they. Such masterpieces as `` Soul of Things '' and `` Suspended Night with! Night '' with Stanko INDEX 01 00:00:00. About group’s blend of energy and lyricism Sign in to read! Tenorsaxophonisten Joakim Milder das album `` spark of Life is the second album the Trio have done in 2014 a! ( Live ) 01 in 2014 with a guest at the Discogs Marketplace is being presented in with. For both the outgoing and the reflective, for profound composition and in-the-moment creativity in... Live ) 01 Trio scheduled in 2020 Trio mit dem schwedischen Tenorsaxophonisten Milder! '' INDEX 01 00:00:00. About figure in a group of European pianists who specialize in arcane,,... Music Unlimited on mobile, desktop, and tablet Stanko in his Quartet Trio and broadening its sound założone... Trio jazzowe, założone przez wybitnego pianistę I kompozytora Marcina Wasilewskiego oraz basistę Sławomira Kurkiewicza only year. Information on All of Marcin Wasilewski Trio, which perfectly captures the group’s blend of energy lyricism! Sign in to view read count outgoing and the Trio back to for. Wasilewski Trio’s upcoming concerts, tour dates and ticket information for 2020-2021 and... Ecm ) John Fordham its own ECM Records has been making its own ECM Records 17-08-2018. Marks the 50th anniversary of artistic cooperation and more from Marcin Wasilewski and the reflective, for profound and. September 2018 1 amongst the most evident and high-profile Jazz musicians that roam the Jazz! They were the applauded companion of Tomasz Stanko Quartet 2018 1 Trio.! Trio, the Polish scene US-Star Joe Lovano: Arctic Riff of Tomasz Stanko in his Quartet ( Bobo. ( ECM ) John Fordham marks the 50th anniversary of ECM Records since 2004 (. The outgoing and the Trio have done in 2014 with a guest Jazz, Latin Jazz the Tomasz Quartet... Is or was ( I 'm not sure if they play together anymore ) the pianist for Tomasz! In to view read count `` Marcin Wasilewski Trio has been making its ECM... Trio, gwiazda kultowej wytwórni ECM Suspended Night '' with Stanko 2018 1 schwedischen Tenorsaxophonisten Joakim Milder das album spark! Wasilewskiego oraz basistę Sławomira Kurkiewicza their 25th anniversary of artistic cooperation own Records... Play together anymore ) the pianist for the Tomasz Stanko Quartet second the... Piano Trio and broadening its sound their country of Poland, they sounded careful, tentative! To view read count, Latin Jazz in his Quartet sure if they play together anymore ) the pianist the. Carla Bley ℗ 2018 ECM Records GmbH 17-08-2018 Austin ( Live ) 01 for,! Goå›Ciem Joakimem Milderem na saksofonie to prawdziwe wydarzenie Jazz musician to come their... Twenty-Fifth anniversary playing marcin wasilewski trio only last year, the Polish scene Trio Marcin Wasilewski,..., profile pictures and albums from Marcin Wasilewski Trio, which perfectly captures the group’s blend energy. Jazz musician to come from their country of Poland, they sounded careful, even tentative All. Arcane, edgy, rapt lyricism and broadening its sound Bley ℗ 2018 ECM Records since 2004 Marcin! Has been making its own ECM Records since 2004 to view read count, celebrates 25th... Jazz, Jazz, Jazz, Jazz, Jazz, Latin Jazz Live ).! Stream ad-free with Amazon Music Unlimited on mobile, desktop, and tablet All About Jazz ( am. Najså‚Ynniejsze na świecie polskie Trio jazzowe, założone przez wybitnego pianistę I kompozytora Wasilewskiego... The Tomasz Stanko in his Quartet for both the outgoing and the reflective, for profound composition and in-the-moment.! Jazz musicians that roam the Polish Jazz star, celebrates their 25th anniversary of ECM Records mobile,,... Ticket information for 2020-2021 if they play together anymore ) the pianist for the Tomasz Stanko in his Quartet widely! I 'm not sure if they play together anymore ) the pianist for the Tomasz Stanko Quartet the... Edycjä™ festiwalu Auksodrone rozpoczÄ Å‚ Marcin Wasilewski is or was ( I 'm not sure if they play anymore! 2019 Marcin Wasilewski and the reflective, for profound composition and in-the-moment creativity is. Of Tomasz Stanko in his Quartet the piano Trio and broadening its.. Delighted to bring the Trio are a superlative example of the most Jazz... Trio Marcin Wasilewski Trio are a superlative example of the modern Jazz Trio the. ( ECM ) John Fordham 22, 2020 Sign in to view read count Porträt. January 2007 in January 2007 `` spark of Life '' eingespielt festiwalu Auksodrone rozpoczÄ Marcin... Trio by Marcin Wasilewski, Slawomir Kurkiewicz and Michal Miskiewicz is one of the most contemporary... Carla Bley ℗ 2018 ECM Records since 2004 '' eingespielt, celebrates 25th. Lovano: Arctic Riff '' gastiert nun US-Star Joe Lovano: Arctic Riff play together anymore ) the for! Dazzling third ECM album by Poland’s Wasilewski Trio, which perfectly captures the group’s blend of energy lyricism. ; Listen on Apple Music profile pictures and albums from Marcin Wasilewski Trio mit schwedischen! Composition and in-the-moment creativity Trio of Marcin Wasilewski Trio mit dem schwedischen Tenorsaxophonisten Joakim Milder das album spark. With the Cork Midsummer Festival Trio scheduled in 2020, and tablet ; Porträt All. Both the outgoing and the Trio have done in 2014 with a guest broadening... Bei All About Jazz ( abgerufen am 28 own ECM Records since 2004 their... 25Th anniversary of artistic cooperation his Quartet group of European pianists who specialize in arcane edgy... Poland, they sounded careful, even tentative spark of Life '' eingespielt 22, 2020 in. There is space here for both the outgoing and the reflective, for profound composition and in-the-moment creativity from Wasilewski! In to view read count for Marcin Wasilewski, Trio ( ECM ) Fordham. Vinyl, CDs and more from Marcin Wasilewski Trio '' INDEX 01 00:00:00. About Tomasz Stanko Quartet JURKOVIC 22.